慢慢游社区

 找回密码
 我要注册
搜索
查看: 1526|回复: 156

[欧美下载] [百度云][1965][猫和老鼠 珍藏版][194集全][国粤英日四音轨 中英字幕][MKV/每集约150M][总25.6G][720x480][x264 AC3]

  [复制链接]

签到天数: 3 天

[LV.2]偶尔看看I

62

主题

119

帖子

3万

积分

Rank: 64Rank: 64Rank: 64Rank: 64Rank: 64Rank: 64Rank: 64Rank: 64Rank: 64Rank: 64Rank: 64Rank: 64Rank: 64Rank: 64Rank: 64Rank: 64

阅读权限
110
游币
36508
精品值
1100
热心值
0
分享值
161
在线时间
91 小时
注册时间
2014-8-22
最后登录
2020-8-4
发表于 2020-7-8 12:07:30 | 显示全部楼层 |阅读模式

自己压制的版本,保留原盘全部国语、粤语、日语和英语音轨,中文,日文和英文字幕,字幕可关闭。
注:少数故事只有国英双语和单中文字幕。

2020.7.31更新,重压精准分割每集,删除原盘中三个重复的故事,并按风格和年份分类。建议之前下载过的朋友重新下载。




◎译  名 猫和老鼠 / 妙妙妙 / 托姆和小杰瑞 / 汤姆猫与杰利鼠 / 汤姆猫与杰米鼠
◎片  名 Tom and Jerry
◎年  代 1965
◎产  地 美国
◎类  别 喜剧 / 动画 / 家庭
◎语  言 英语
◎上映日期 1965-09-25(美国)
◎豆瓣评分 9.7/10 from 77012 users
◎豆瓣链接 https://movie.douban.com/subject/4321270/
◎集  数 164
◎片  长 30分钟
◎导  演 约瑟夫·巴伯拉 Joseph Barbera / 威廉·汉纳 William Hanna / 特克斯·艾弗里 Tex Avery / Michael Lah
◎编  剧 约瑟夫·巴伯拉 Joseph Barbera / 威廉·汉纳 William Hanna
◎主  演 Daws Butler
       里德·科菲 Red Coffey
       约瑟夫·巴伯拉 Joseph Barbera
       威廉·汉纳 William Hanna
       特克斯·艾弗里 Tex Avery


◎标  签 动画 | 经典 | 童年回忆 | 美国 | 猫和老鼠 | 童年 | 喜剧 | 美国动画

◎简  介  

  Chuck Jones团队1965-1972年间基于Hanna–Barbera在1940-1957年制作的114部影院版动画短片重新打包编辑的电视版《猫和老鼠》,并制作了新片头。其中还混有MGM出品的其他影院版动画短片如Droopy系列。 这一电视版曾于1990年代初在中央电视台播出过。





慢慢游社区mmy.la_1.jpg

慢慢游社区mmy.la_2.jpg

慢慢游社区mmy.la_3.jpg

慢慢游社区mmy.la_5.jpg

General
Unique ID                      : 260966575083630245996066485339183213133 (0xC454558A7246F4D03BC9AF10CEF96A4D)
Complete name                  : E:Tom.and.Jerry.E04.DVDRip.x264.AC3.mkv
Format                         : Matroska
Format version                 : Version 4 / Version 2
File size                      : 78.0 MiB
Duration                       : 6 min 53 s
Overall bit rate               : 1 584 kb/s
Encoded date                   : UTC 2020-06-30 21:23:49
Writing application            : mkvmerge v45.0.0 (‘Heaven in Pennies‘) 64-bit
Writing library                : libebml v1.3.10 + libmatroska v1.5.2

Video
ID                             : 1
Format                         : AVC
Format/Info                    : Advanced Video Codec
Format profile                 : High@L3
Format settings                : CABAC / 4 Ref Frames
Format settings, CABAC         : Yes
Format settings, ReFrames      : 4 frames
Codec ID                       : V_MPEG4/ISO/AVC
Duration                       : 6 min 53 s
Bit rate                       : 812 kb/s
Width                          : 720 pixels
Height                         : 480 pixels
Display aspect ratio           : 4:3
Frame rate mode                : Constant
Frame rate                     : 24.000 FPS
Color space                    : YUV
Chroma subsampling             : 4:2:0
Bit depth                      : 8 bits
Scan type                      : Progressive
Bits/(Pixel*Frame)             : 0.098
Stream size                    : 40.0 MiB (51%)
Default                        : Yes
Forced                         : No

Audio #1
ID                             : 2
Format                         : AC-3
Format/Info                    : Audio Coding 3
Codec ID                       : A_AC3
Duration                       : 6 min 53 s
Bit rate mode                  : Constant
Bit rate                       : 192 kb/s
Channel(s)                     : 2 channels
Channel positions              : Front: L R
Sampling rate                  : 48.0 kHz
Frame rate                     : 31.250 FPS (1536 SPF)
Bit depth                      : 16 bits
Compression mode               : Lossy
Delay relative to video        : 2 ms
Stream size                    : 9.45 MiB (12%)
Title                          : 国语
Language                       : Chinese
Service kind                   : Complete Main
Default                        : Yes
Forced                         : No

Audio #2
ID                             : 3
Format                         : AC-3
Format/Info                    : Audio Coding 3
Codec ID                       : A_AC3
Duration                       : 6 min 53 s
Bit rate mode                  : Constant
Bit rate                       : 192 kb/s
Channel(s)                     : 2 channels
Channel positions              : Front: L R
Sampling rate                  : 48.0 kHz
Frame rate                     : 31.250 FPS (1536 SPF)
Bit depth                      : 16 bits
Compression mode               : Lossy
Delay relative to video        : 2 ms
Stream size                    : 9.45 MiB (12%)
Title                          : 英语
Language                       : English
Service kind                   : Complete Main
Default                        : No
Forced                         : No

Audio #3
ID                             : 4
Format                         : AC-3
Format/Info                    : Audio Coding 3
Codec ID                       : A_AC3
Duration                       : 6 min 53 s
Bit rate mode                  : Constant
Bit rate                       : 192 kb/s
Channel(s)                     : 2 channels
Channel positions              : Front: L R
Sampling rate                  : 48.0 kHz
Frame rate                     : 31.250 FPS (1536 SPF)
Bit depth                      : 16 bits
Compression mode               : Lossy
Delay relative to video        : 2 ms
Stream size                    : 9.45 MiB (12%)
Title                          : 日语
Language                       : Japanese
Service kind                   : Complete Main
Default                        : No
Forced                         : No

Audio #4
ID                             : 5
Format                         : AC-3
Format/Info                    : Audio Coding 3
Codec ID                       : A_AC3
Duration                       : 6 min 53 s
Bit rate mode                  : Constant
Bit rate                       : 192 kb/s
Channel(s)                     : 2 channels
Channel positions              : Front: L R
Sampling rate                  : 48.0 kHz
Frame rate                     : 31.250 FPS (1536 SPF)
Bit depth                      : 16 bits
Compression mode               : Lossy
Delay relative to video        : 2 ms
Stream size                    : 9.45 MiB (12%)
Title                          : 粤语
Language                       : Chinese
Service kind                   : Complete Main
Default                        : No
Forced                         : No

Text #1
ID                             : 6
Format                         : VobSub
Muxing mode                    : zlib
Codec ID                       : S_VOBSUB
Codec ID/Info                  : Picture based subtitle format used on DVDs
Duration                       : 6 min 23 s
Bit rate                       : 1 167 b/s
Count of elements              : 19
Stream size                    : 54.6 KiB (0%)
Language                       : Chinese
Default                        : Yes
Forced                         : No

Text #2
ID                             : 7
Format                         : VobSub
Muxing mode                    : zlib
Codec ID                       : S_VOBSUB
Codec ID/Info                  : Picture based subtitle format used on DVDs
Duration                       : 6 min 24 s
Bit rate                       : 1 234 b/s
Count of elements              : 27
Stream size                    : 57.9 KiB (0%)
Language                       : English
Default                        : No
Forced                         : No

Text #3
ID                             : 8
Format                         : VobSub
Muxing mode                    : zlib
Codec ID                       : S_VOBSUB
Codec ID/Info                  : Picture based subtitle format used on DVDs
Duration                       : 6 min 24 s
Bit rate                       : 1 309 b/s
Count of elements              : 28
Stream size                    : 61.5 KiB (0%)
Language                       : Japanese
Default                        : No
Forced                         : No

Menu
00:00:00.000                   : en:Chapter 04
00:06:51.427                   : en:Chapter 05

链接: >>点击进入百度云下载<<(←购买前请先验证分享链接是否有效)
此处内容付费可见

向楼主支付【游币】或成为【特权组】才能显示 已有 138 人购买 

支付 20 游币 成为特权组
楼主精华帖
回复

使用道具 举报

签到天数: 1551 天

[LV.Master]伴坛终老

0

主题

3206

帖子

1万

积分

Rank: 32Rank: 32Rank: 32Rank: 32Rank: 32Rank: 32Rank: 32Rank: 32

阅读权限
90
游币
10614
精品值
152
热心值
0
分享值
0
在线时间
1439 小时
注册时间
2015-3-6
最后登录
2020-8-4

活跃会员

发表于 2020-7-8 12:20:34 | 显示全部楼层
楼主发贴辛苦了,谢谢楼主的精彩分享!我觉得慢慢游是注册对了!
回复 支持 反对

使用道具 举报

签到天数: 1202 天

[LV.10]以坛为家III

0

主题

1358

帖子

4874

积分

Rank: 16Rank: 16Rank: 16Rank: 16

阅读权限
70
游币
2832
精品值
50
热心值
0
分享值
0
在线时间
584 小时
注册时间
2016-12-31
最后登录
2020-8-4
发表于 2020-7-8 12:38:09 | 显示全部楼层
楼主发贴辛苦了,谢谢楼主的精彩分享!我觉得慢慢游是注册对了!
回复 支持 反对

使用道具 举报

该用户从未签到

0

主题

42

帖子

6062

积分

Rank: 16Rank: 16Rank: 16Rank: 16

阅读权限
70
游币
5608
精品值
65
热心值
0
分享值
0
在线时间
283 小时
注册时间
2019-6-8
最后登录
2020-8-4
发表于 2020-7-8 12:47:52 | 显示全部楼层

楼主发贴辛苦了,谢谢楼主的精彩分享
回复 支持 反对

使用道具 举报

签到天数: 661 天

[LV.9]以坛为家II

0

主题

1450

帖子

3106

积分

Rank: 8Rank: 8

阅读权限
50
游币
652
精品值
15
热心值
0
分享值
0
在线时间
974 小时
注册时间
2014-12-1
最后登录
2020-8-2
发表于 2020-7-8 12:50:47 | 显示全部楼层
楼主太厉害了!这个资源都能找到,辛苦了!我觉得慢慢游真是个好地方!
回复 支持 反对

使用道具 举报

签到天数: 968 天

[LV.10]以坛为家III

0

主题

2613

帖子

1万

积分

Rank: 32Rank: 32Rank: 32Rank: 32Rank: 32Rank: 32Rank: 32Rank: 32

阅读权限
90
游币
9275
精品值
30
热心值
0
分享值
0
在线时间
1523 小时
注册时间
2017-7-5
最后登录
2020-8-4

活跃会员

发表于 2020-7-8 12:51:02 | 显示全部楼层
楼主太厉害了!这个资源都能找到,辛苦了!我觉得慢慢游真是个好地方!
回复 支持 反对

使用道具 举报

签到天数: 1375 天

[LV.10]以坛为家III

93

主题

4333

帖子

1万

积分

Rank: 32Rank: 32Rank: 32Rank: 32Rank: 32Rank: 32Rank: 32Rank: 32

阅读权限
90
游币
6893
精品值
360
热心值
4
分享值
24
在线时间
2390 小时
注册时间
2015-4-14
最后登录
2020-8-4
发表于 2020-7-8 12:52:57 | 显示全部楼层
楼主如此诚意的分享如此精彩的内容,必须赞!我想我是一天也不能离开慢慢游。
回复 支持 反对

使用道具 举报

签到天数: 158 天

[LV.7]常住居民III

0

主题

199

帖子

738

积分

Rank: 4

阅读权限
30
游币
500
精品值
0
热心值
0
分享值
0
在线时间
39 小时
注册时间
2020-2-28
最后登录
2020-8-3
发表于 2020-7-8 12:54:08 | 显示全部楼层
这东西我收了!谢谢楼主!有慢慢游真好!
回复 支持 反对

使用道具 举报

签到天数: 995 天

[LV.10]以坛为家III

235

主题

5106

帖子

7万

积分

Rank: 64Rank: 64Rank: 64Rank: 64Rank: 64Rank: 64Rank: 64Rank: 64Rank: 64Rank: 64Rank: 64Rank: 64Rank: 64Rank: 64Rank: 64Rank: 64

阅读权限
110
游币
61116
精品值
2213
热心值
2
分享值
67
在线时间
1416 小时
注册时间
2014-9-22
最后登录
2020-8-2

活跃会员灌水之王最佳新人

发表于 2020-7-8 12:56:10 | 显示全部楼层
这贴子挺牛,我需要。
回复 支持 反对

使用道具 举报

签到天数: 186 天

[LV.7]常住居民III

77

主题

674

帖子

4万

积分

Rank: 64Rank: 64Rank: 64Rank: 64Rank: 64Rank: 64Rank: 64Rank: 64Rank: 64Rank: 64Rank: 64Rank: 64Rank: 64Rank: 64Rank: 64Rank: 64

阅读权限
230
游币
38164
精品值
273
热心值
18
分享值
76
在线时间
596 小时
注册时间
2020-1-21
最后登录
2020-8-4

最佳新人活跃会员热心会员优秀版主

发表于 2020-7-8 13:12:35 来自手机 | 显示全部楼层
我收下了,还不错
回复 支持 反对

使用道具 举报

回帖须知
本站严禁灌水回复以及讽刺辱骂分享者的行为,轻者扣分警告,重者直接永久封禁。发帖前请详读:点击进入 。以免永久封禁。
 懒得打字?点击快捷回复➔➔ 
您需要登录后才可以回帖 登录 | 我要注册

本版积分规则

小黑屋|手机版|慢慢游社区 ( 站务处理service@mmyfilm.com )

GMT+8, 2020-8-4 18:35 , Processed in 0.183419 second(s), 36 queries .

Powered by Discuz! X3.4

© 2001-2013 Comsenz Inc.

快速回复 返回顶部 返回列表